Türkiyenin Çözünürlüğü En Yüksek HD Blu-Ray Film Platformu...

Ana Sayfa   Forumlar   
Go Back   HD Film indir Bluray 1080P 720P DUAL Dizi Belgesel 3D 3 Boyutlu > Turkce Dil Destekli HD Filmler > Turkce BD Remux Film indir

Turkce BD Remux Film indir Turkce Bluray Remux Filmleri Bu Bolumde BUlabilirsiniz.
Ortalama Film Boyutu : 20 GB

Like Tree1Likes
  • 1 Post By dolbykoray

Cevapla
 
Secenekler Stil
Alt 17 Kasım 2017, 03:40   #1
dolbykoray
dolbykoray - ait Kullanici Resmi (Avatar)
Uyelik tarihi: 23 Nisan 2014
Bulundugu yer: Gaziantep
Mesajlar: 607
Konular: 325
Rep Puanı : 221
TrueHD Logan: Wolverine | 2017 | 4K HDR | BluRay | REMUX | 2160p | HEVC | THD Atmos 7.1 | DUAL | HDA

  • Logan: Wolverine ( 2017 )
  • Rar Şifresi : www.hdarsivi.com
  • Görüntü Kalitesi : 4K-HDR REMUX
  • Yapım Yılı : 2017
  • Dil : Türkçe - İngilizce




Turbobit.Net Link Bağlantısı

Hakkında

Yakın gelecekte, yorgun savaşçı Logan'ın önemsediği tek şey hasta olan Profesör X'i Meksika sınırında saklamaktı. Ancak Logan'ın dünyadan ve kendi efsanesinden saklanma çabası, karanlık güçler tarafından takip edilen genç bir Mutant'ın gelişiyle sona erer



Kod:
http://www.imdb.com/title/tt3315342/



Trailer - Fragman

http://www.youtube.com/watch?v=RH3OxVFvTeg


Ayrıntılı Dosya Bilgileri

Kod:
File size                                : 38.9 GiB
Duration                                 : 2 h 17 min
Overall bit rate mode                    : Variable
Overall bit rate                         : 40.5 Mb/s


Video
ID                                       : 1
Format                                   : HEVC
Format/Info                              : High Efficiency Video Coding
Format profile                           : Main [email protected]@High
Codec ID                                 : V_MPEGH/ISO/HEVC
Duration                                 : 2 h 17 min
Bit rate                                 : 35.0 Mb/s
Width                                    : 3 840 pixels
Height                                   : 2 160 pixels
Display aspect ratio                     : 16:9
Frame rate mode                          : Constant
Frame rate                               : 23.976 (24000/1001) FPS
Color space                              : YUV
Chroma subsampling                       : 4:2:0 (Type 2)
Bit depth                                : 10 bits HDR
Bits/(Pixel*Frame)                       : 0.176
Stream size                              : 33.6 GiB (86%)
Writing library                          : ATEME Titan File 3.7.8 (4.7.8.0)
Language                                 : English
Default                                  : Yes
Forced                                   : No
Color range                              : Limited
Color primaries                          : BT.2020
Transfer characteristics                 : PQ
Matrix coefficients                      : BT.2020 non-constant
Mastering display color primaries        : R: x=0.680000 y=0.320000, G: x=0.265000 y=0.690000, B: x=0.150000 y=0.060000, White point: x=0.312700 y=0.329000
Mastering display luminance              : min: 0.0050 cd/m2, max: 1000.0000 cd/m2

Audio #1
ID                                       : 2
Format                                   : TrueHD
Format profile                           : TrueHD+Atmos / TrueHD
Codec ID                                 : A_TRUEHD
Duration                                 : 2 h 17 min
Bit rate mode                            : Variable
Bit rate                                 : 4 998 kb/s
Maximum bit rate                         : 9 255 kb/s
Channel(s)                               : Object Based / 8 channels
Channel positions                        : Object Based / Front: L C R, Side: L R, Back: L R, LFE
Sampling rate                            :  / 48.0 kHz
Frame rate                               : 1 200.000 FPS (40 SPF)
Compression mode                         : Lossless
Delay relative to video                  : -1 ms
Stream size                              : 4.80 GiB (12%)
Language                                 : English
Default                                  : Yes
Forced                                   : No

Audio #2
ID                                       : 3
Format                                   : AC-3
Format/Info                              : Audio Coding 3
Codec ID                                 : A_AC3
Duration                                 : 2 h 17 min
Bit rate mode                            : Constant
Bit rate                                 : 448 kb/s
Channel(s)                               : 6 channels
Channel positions                        : Front: L C R, Side: L R, LFE
Sampling rate                            : 48.0 kHz
Frame rate                               : 31.250 FPS (1536 SPF)
Bit depth                                : 16 bits
Compression mode                         : Lossy
Delay relative to video                  : -1 ms
Stream size                              : 440 MiB (1%)
Language                                 : Turkish
Service kind                             : Complete Main
Default                                  : No
Forced                                   : No

Text #1
ID                                       : 4
Format                                   : PGS
Muxing mode                              : zlib
Codec ID                                 : S_HDMV/PGS
Codec ID/Info                            : Picture based subtitle format used on BDs/HD-DVDs
Duration                                 : 2 h 16 min
Bit rate                                 : 7 053 b/s
Count of elements                        : 2274
Stream size                              : 6.87 MiB (0%)
Title                                    : Normal
Language                                 : English
Default                                  : Yes
Forced                                   : No

Text #2
ID                                       : 5
Format                                   : UTF-8
Codec ID                                 : S_TEXT/UTF8
Codec ID/Info                            : UTF-8 Plain Text
Duration                                 : 3 min 12 s
Bit rate                                 : 47 b/s
Count of elements                        : 18
Stream size                              : 1.11 KiB (0%)
Title                                    : Normal
Language                                 : Turkish
Default                                  : No
Forced                                   : No

Text #3
ID                                       : 6
Format                                   : UTF-8
Codec ID                                 : S_TEXT/UTF8
Codec ID/Info                            : UTF-8 Plain Text
Duration                                 : 2 h 13 min
Bit rate                                 : 43 b/s
Count of elements                        : 1347
Stream size                              : 43.0 KiB (0%)
Title                                    : FORCED
Language                                 : Turkish
Default                                  : No
Forced                                   : Yes
Ekran Görüntüleri



scbym likes this.


Bizlere Destek Çıkmak için Turbobit Premium Hesabınızı Aşağıdaki Linkten Temin ederseniz Bizlere Yardım Etmiş Olursunuz .title="ustad"


Konu dolbykoray tarafindan (17 Kasım 2017 Saat 04:36 ) degistirilmistir..
dolbykoray isimli Uye simdilik offline konumundadir  
HD Arsivi ViP Üyesi olun Rahat edin. 7 Yıldır Blu-ray Filmin Değişmez Adresi Olduk. Tüm Üyelerimize Teşekkurler...
Bu filmi, kırık link derdi olmadan, son hızda, tek parça halinde, hdarsivi serverlarından indirmek için TIKLAYIN
Alt 17 Kasım 2017, 08:25   #2
scbym
scbym - ait Kullanici Resmi (Avatar)
Uyelik tarihi: 13 Temmuz 2013
Bulundugu yer: Kadıköy
Mesajlar: 689
Konular: 0
Rep Puanı : 10
Standart

Emeğinize sağlık, teşekkürler.
scbym isimli Uye suanda  online konumundadir   Alinti ile Cevapla
Alt 17 Kasım 2017, 19:23   #3
RED_ALERT
RED_ALERT - ait Kullanici Resmi (Avatar)
Uyelik tarihi: 27 Nisan 2013
Bulundugu yer: Ankara
Mesajlar: 578
Konular: 0
Rep Puanı : 10
Standart

Paylaşım ve emek için teşekkürler
RED_ALERT isimli Uye simdilik offline konumundadir   Alinti ile Cevapla
Alt 05 Aralık 2017, 21:41   #4
karakalemler
karakalemler - ait Kullanici Resmi (Avatar)
Uyelik tarihi: 18 Kasım 2013
Mesajlar: 369
Konular: 0
Rep Puanı : 10
Standart

film için te351;ekkürler eme287;inize sa287;l305;k
karakalemler isimli Uye simdilik offline konumundadir   Alinti ile Cevapla
Cevapla

Secenekler
Stil

Yetkileriniz
Konu Acma Yetkiniz Yok
Cevap Yazma Yetkiniz Yok
Eklenti Yukleme Yetkiniz Yok
Mesajinizi Degistirme Yetkiniz Yok

BB code is Acik
[IMG] Kodlari Acik
HTML-Kodu Kapali
Trackbacks are Kapali
Pingbacks are Kapali
Refbacks are Kapali


Sitemizde Yenimisiniz ? Yardim Konulari

Sitemizde kesinlikle yerli yapim filmlerin paylasilmasi yasaktir.Sitede yer alan tum icerik tanitim amaclidir. Lutfen begendiginiz yapimlarin orijinal blu-ray'ini alip onlara destek verin.
Telif hakki size ait olan iceriklerin siteden kaldirilmasi icin lutfen iletisime geciniz.
 

Powered by vBulletin® Version 3.8.7
Copyright ©2000 - 2017, Jelsoft Enterprises Ltd.
Search Engine Optimization by vBSEO 3.6.0