Türkiyenin Çözünürlüğü En Yüksek HD Blu-Ray Film Platformu...

Ana Sayfa   Forumlar   
Go Back   HD Film indir Bluray 1080P 720P DUAL Dizi Belgesel 3D 3 Boyutlu > Turkce Dil Destekli HD Filmler > Turkce BD Remux Film indir

Turkce BD Remux Film indir Turkce Bluray Remux Filmleri Bu Bolumde BUlabilirsiniz.
Ortalama Film Boyutu : 20 GB

Like Tree2Likes
  • 1 Post By SharpSword
  • 1 Post By x264bb

Cevapla
 
Secenekler Stil
Alt 18 Temmuz 2017, 10:20   #1
SharpSword
SharpSword - ait Kullanici Resmi (Avatar)
Uyelik tarihi: 02 Eylül 2010
Bulundugu yer: The Dark Moon
Mesajlar: 18.212
Konular: 12380
Rep Puanı : 54519
TrueHD Batman v Superman | Dawn of Justice | 2016 | Extended | 4K | 2160p | HEVC | REMUX | TrueHD Atmos 7.1 | DUAL | HDA

  • Batman v Superman: Dawn of Justice ( Batman v Superman: Adaletin Şafağı )
  • Rar Şifresi : www.hdarsivi.com
  • Görüntü Kalitesi : Extended | 4K-HDR REMUX |
  • Yapım Yılı : 2016
  • Dil : Türkçe - ingilizce




Turbobit.Net Link Bağlantısı


Batman v Superman: Dawn of Justice ( Batman v Superman: Adaletin Şafağı )


Beraberinde getirdiği umut ile dünyada tanrılaşan Superman neden olduğu savaş ve yıkım ile birlikte insanlık için tehdit unsuru oluşturmaya başlar. Dünya gerçekte ne tür bir kahramana ihitiyaç duyduğuna karar vermek için çabalarken, kontrolsüz hareketleri süren Süper Kahraman’ın insanlığın yanında mı karşısında mı olacağı merak edilirken Gotham Şehrinin koruyucusu Batman'e karşı giriştiği mücadele yeni bir savaşa davetiye çıkaracaktır.

Zack Snyder imzalı Batman versus Superman: Adaletin Şafağı, tarihte ilk kez iki DC karakterini beyaz perdede buluşturuyor. Başrollerinde Oscar ödüllü Ben Affleck Batman/Bruce Wayne ve Man of Stell filminin yıldızı Henry Cavill Superman/Clark Kent rolüyle karşı karşıya geliyor.


Kod:
http://www.imdb.com/title/tt2975590/

Trailer - Fragman

http://www.youtube.com/watch?v=8AO19XY2rqc


Ayrıntılı Dosya Bilgileri

Kod:
File size                                : 79.9 GiB
Duration                                 : 3 h 2 min
Overall bit rate mode                    : Variable
Overall bit rate                         : 62.6 Mb/s

Video
ID                                       : 1
Format                                   : HEVC
Format/Info                              : High Efficiency Video Coding
Format profile                           : Main [email protected]@High
Codec ID                                 : V_MPEGH/ISO/HEVC
Duration                                 : 3 h 2 min
Bit rate                                 : 54.4 Mb/s
Width                                    : 3 840 pixels
Height                                   : 2 160 pixels
Display aspect ratio                     : 16:9
Frame rate mode                          : Constant
Frame rate                               : 23.976 (24000/1001) FPS
Color space                              : YUV
Chroma subsampling                       : 4:2:0 (Type 2)
Bit depth                                : 10 bits HDR
Bits/(Pixel*Frame)                       : 0.274
Stream size                              : 69.4 GiB (87%)
Writing library                          : ATEME Titan KFE 3.7.3 (4.7.3.1003)
Language                                 : English
Default                                  : Yes
Forced                                   : No
Color range                              : Limited
Color primaries                          : BT.2020
Transfer characteristics                 : PQ
Matrix coefficients                      : BT.2020 non-constant
Mastering display color primaries        : R: x=0.680000 y=0.320000, G: x=0.265000 y=0.690000, B: x=0.150000 y=0.060000, White point: x=0.312700 y=0.329000
Mastering display luminance              : min: 0.0050 cd/m2, max: 4000.0000 cd/m2
Maximum Content Light Level              : 4000 cd/m2
Maximum Frame-Average Light Level        : 1000 cd/m2

Audio #1
ID                                       : 2
Format                                   : TrueHD
Format profile                           : TrueHD+Atmos / TrueHD
Codec ID                                 : A_TRUEHD
Duration                                 : 3 h 2 min
Bit rate mode                            : Variable
Bit rate                                 : 4 966 kb/s
Maximum bit rate                         : 8 199 kb/s
Channel(s)                               : Object Based / 8 channels
Channel positions                        : Object Based / Front: L C R, Side: L R, Back: L R, LFE
Sampling rate                            :  / 48.0 kHz
Frame rate                               : 1 200.000 FPS (40 SPF)
Compression mode                         : Lossless
Stream size                              : 6.33 GiB (8%)
Language                                 : English
Default                                  : No
Forced                                   : No

Audio #2
ID                                       : 3
Format                                   : DTS
Format/Info                              : Digital Theater Systems
Format profile                           : MA / ES Matrix / Core
Codec ID                                 : A_DTS
Duration                                 : 3 h 2 min
Bit rate mode                            : Variable / Constant / Constant
Bit rate                                 : 2 547 kb/s / 1 509 kb/s / 1 509 kb/s
Channel(s)                               : 8 channels / 7 channels / 6 channels
Channel positions                        : Front: L C R, Side: L R, Back: L R, LFE / Front: L C R, Side: L R, Back: C, LFE / Front: L C R, Side: L R, LFE
Sampling rate                            : 48.0 kHz
Frame rate                               : 93.750 FPS (512 SPF)
Bit depth                                : 16 bits
Compression mode                         : Lossless / Lossy / Lossy
Stream size                              : 3.25 GiB (4%)
Language                                 : Turkish
Default                                  : Yes
Forced                                   : No

Audio #3
ID                                       : 4
Format                                   : AC-3
Format/Info                              : Audio Coding 3
Codec ID                                 : A_AC3
Duration                                 : 3 h 2 min
Bit rate mode                            : Constant
Bit rate                                 : 640 kb/s
Channel(s)                               : 6 channels
Channel positions                        : Front: L C R, Side: L R, LFE
Sampling rate                            : 48.0 kHz
Frame rate                               : 31.250 FPS (1536 SPF)
Bit depth                                : 16 bits
Compression mode                         : Lossy
Stream size                              : 836 MiB (1%)
Language                                 : Turkish
Service kind                             : Complete Main
Default                                  : No
Forced                                   : No

Text #1
ID                                       : 5
Format                                   : PGS
Muxing mode                              : zlib
Codec ID                                 : S_HDMV/PGS
Codec ID/Info                            : Picture based subtitle format used on BDs/HD-DVDs
Duration                                 : 2 h 52 min
Bit rate                                 : 8 289 b/s
Count of elements                        : 3243
Stream size                              : 10.3 MiB (0%)
Language                                 : English
Default                                  : No
Forced                                   : No

Text #2
ID                                       : 6
Format                                   : UTF-8
Codec ID                                 : S_TEXT/UTF8
Codec ID/Info                            : UTF-8 Plain Text
Duration                                 : 2 h 53 min
Bit rate                                 : 11 b/s
Count of elements                        : 380
Stream size                              : 15.0 KiB (0%)
Title                                    : FORCED
Language                                 : Turkish
Default                                  : Yes
Forced                                   : Yes

Text #3
ID                                       : 7
Format                                   : UTF-8
Codec ID                                 : S_TEXT/UTF8
Codec ID/Info                            : UTF-8 Plain Text
Duration                                 : 2 h 54 min
Bit rate                                 : 43 b/s
Count of elements                        : 1358
Stream size                              : 55.1 KiB (0%)
Language                                 : Turkish
Default                                  : No
Forced                                   : No
Ekran (SnapShot) & Cover Disk (Label) Görüntüleri





Bundan önce indiren arkadaşların kafası karışmasın . Bundan önceki 4K içerikler farklı yöntemler ile kayıt alınmış x265 vs. ile tekrar encode edilmiş idi .
Şuan indirdiğiniz Uzatılmış Versiyon UltraHD Bluray Remux ile Link Değiştirilmiştir. Triple Layer " 100GB " Diskten HDRINVASION elde edilmiştir .

-DolbyKoray-


ofhaln likes this.


Turbobit.Net , üzerinden Premium Hesabınızı Yenileme veya Satın alma işlemlerinizde Sizlerden Ricam imzamdaki Butona Tıklayarak, veya Açtığım Konular üzerindeki Linkler üzerinden işlem yapmanızı rica ediyorum, Destekleriniz için Teşekkürler. title="ustad"


Konu dolbykoray tarafindan (19 Kasım 2017 Saat 07:06 ) degistirilmistir..
SharpSword isimli Uye simdilik offline konumundadir  
HD Arsivi ViP Üyesi olun Rahat edin. 7 Yıldır Blu-ray Filmin Değişmez Adresi Olduk. Tüm Üyelerimize Teşekkurler...
Bu filmi, kırık link derdi olmadan, son hızda, tek parça halinde, hdarsivi serverlarından indirmek için TIKLAYIN
Alt 19 Kasım 2017, 10:35   #2
RED_ALERT
RED_ALERT - ait Kullanici Resmi (Avatar)
Uyelik tarihi: 27 Nisan 2013
Bulundugu yer: Ankara
Mesajlar: 586
Konular: 0
Rep Puanı : 10
Standart

Paylaşım ve emek için teşekkürler
RED_ALERT isimli Uye suanda  online konumundadir   Alinti ile Cevapla
Alt 19 Kasım 2017, 11:53   #3
scbym
scbym - ait Kullanici Resmi (Avatar)
Uyelik tarihi: 13 Temmuz 2013
Bulundugu yer: Kadıköy
Mesajlar: 694
Konular: 0
Rep Puanı : 10
Standart

Teşekkürler.
scbym isimli Uye suanda  online konumundadir   Alinti ile Cevapla
Alt 19 Kasım 2017, 12:31   #4
x264bb
Avatar Yok
Uyelik tarihi: 21 Ekim 2014
Mesajlar: 45
Konular: 0
Rep Puanı : 10
Standart

bundan önceki 4k uhd ler orijinal uhd değildi ama bundan sonraki uhd ripler orjinaldir emeğine sağlık
dolbykoray likes this.
x264bb isimli Uye suanda  online konumundadir   Alinti ile Cevapla
Alt 20 Kasım 2017, 16:39   #5
intikam
intikam - ait Kullanici Resmi (Avatar)
Uyelik tarihi: 23 Nisan 2010
Mesajlar: 114
Konular: 0
Rep Puanı : 111
Standart

teşekkürler
intikam isimli Uye simdilik offline konumundadir   Alinti ile Cevapla
Alt 20 Kasım 2017, 17:12   #6
ofhaln
ofhaln - ait Kullanici Resmi (Avatar)
Uyelik tarihi: 30 Kasım 2011
Bulundugu yer: İstanbul
Mesajlar: 32
Konular: 0
Rep Puanı : 10
Standart

Teşekkürler
ofhaln isimli Uye simdilik offline konumundadir   Alinti ile Cevapla
Alt 23 Kasım 2017, 15:30   #7
sayginer
sayginer - ait Kullanici Resmi (Avatar)
Uyelik tarihi: 26 Şubat 2011
Mesajlar: 86
Konular: 2
Rep Puanı : 10
Standart

iyi günler.
turbobitin gunluk limiti 25gb oldugundan indiremiyoruz ertesi gun indirmeye calısıyorum flashget vs programlarla kaldıgı yerden devem etmiyor 4k fillmleri nasıl indirecez selam ve saygılar bi yolu varmı
sayginer isimli Uye simdilik offline konumundadir   Alinti ile Cevapla
Alt 23 Kasım 2017, 16:28   #8
dolbykoray
dolbykoray - ait Kullanici Resmi (Avatar)
Uyelik tarihi: 23 Nisan 2014
Bulundugu yer: Gaziantep
Mesajlar: 606
Konular: 324
Rep Puanı : 221
Standart

Alinti:
sayginer Nickli Uyeden Alinti Mesaji goster
iyi günler.
turbobitin gunluk limiti 25gb oldugundan indiremiyoruz ertesi gun indirmeye calısıyorum flashget vs programlarla kaldıgı yerden devem etmiyor 4k fillmleri nasıl indirecez selam ve saygılar bi yolu varmı
Yapabileceğimiz hiç bir şey yok . Bir tek yol var VIP üyemiz olmanız title="ustad"


Bizlere Destek Çıkmak için Turbobit Premium Hesabınızı Aşağıdaki Linkten Temin ederseniz Bizlere Yardım Etmiş Olursunuz .title="ustad"

dolbykoray isimli Uye simdilik offline konumundadir   Alinti ile Cevapla
Alt 02 Aralık 2017, 10:09   #9
samnyc
Avatar Yok
Uyelik tarihi: 09 Eylül 2017
Mesajlar: 1
Konular: 0
Rep Puanı : 10
Standart

Selamlar bir sey sormak isterim burdaki Turkce Dts ses orjinal mi? birde muxing mode olarak pgs de kullanilan Zlib televizyonun okumasinda problem yaratir mi?
samnyc isimli Uye simdilik offline konumundadir   Alinti ile Cevapla
Cevapla

Secenekler
Stil

Yetkileriniz
Konu Acma Yetkiniz Yok
Cevap Yazma Yetkiniz Yok
Eklenti Yukleme Yetkiniz Yok
Mesajinizi Degistirme Yetkiniz Yok

BB code is Acik
[IMG] Kodlari Acik
HTML-Kodu Kapali
Trackbacks are Kapali
Pingbacks are Kapali
Refbacks are Kapali


Sitemizde Yenimisiniz ? Yardim Konulari

Sitemizde kesinlikle yerli yapim filmlerin paylasilmasi yasaktir.Sitede yer alan tum icerik tanitim amaclidir. Lutfen begendiginiz yapimlarin orijinal blu-ray'ini alip onlara destek verin.
Telif hakki size ait olan iceriklerin siteden kaldirilmasi icin lutfen iletisime geciniz.
 

Powered by vBulletin® Version 3.8.7
Copyright ©2000 - 2017, Jelsoft Enterprises Ltd.
Search Engine Optimization by vBSEO 3.6.0