Türkiyenin Çözünürlüğü En Yüksek HD Blu-Ray Film Platformu...

Ana Sayfa   Forumlar   
Go Back   HD Film indir Bluray 1080P 720P DUAL Dizi Belgesel 3D 3 Boyutlu > HD Arsivi > Teknik Destek

Teknik Destek Her turlu Konuda Yardim Alabileceginiz ve Yardimci Dokumanlari Bulabileceginiz Bolum

Cevapla
 
Secenekler Stil
Alt 16 Şubat 2017, 14:58   #1
omerksk87
Avatar Yok
Uyelik tarihi: 28 Nisan 2012
Mesajlar: 19
Konular: 2
Rep Puanı : 10
Standart M2TS kalite bozmadan ses ekleme

Arkadaşlar baba filmini indirmiştim .MKVToolNix ile türkçe ses dosyası ekleyince boyut düşüyor. Sanırım kalitede düşüyordur.Ayarı falan varmı bunun
değerleri de yazayım
m2ts (orijinal hali)



The Godfather Collection 1972-1990 The Coppola Restoration Blu-ray Remux 1080p AVC TrueHD 5.1-HD RemuX\The.Godfather.1972.Blu-ray.Remux.1080p.AVC.TrueHD.5.1-HDRemuX.m2ts
General #1
ID : 1 (0x1)
Complete name : The.Godfather.1972.Blu-ray.Remux.1080p.AVC.TrueHD.5.1-HDRemuX.m2ts
Format : BDAV
Format/Info : Blu-ray Video
File size : 43.1 GiB
Duration : 2 h 57 min
Overall bit rate mode : Variable
Overall bit rate : 34.8 Mb/s
Maximum Overall bit rate : 35.5 Mb/s
Video #4113
ID : 4113 (0x1011)
Menu ID : 1 (0x1)
Format : AVC
Format/Info : Advanced Video Codec
Format profile : High@L4.1
Format settings, CABAC : Yes
Format settings, ReFrames : 4 frames
Codec ID : 27
Duration : 2 h 57 min
Bit rate mode : Variable
Bit rate : 32.1 Mb/s
Maximum bit rate : 38.3 Mb/s
Width : 1 920 pixels
Height : 1 080 pixels
Display aspect ratio : 16:9
Frame rate : 23.976 (24000/1001) FPS
Color space : YUV
Chroma subsampling : 4:2:0
Bit depth : 8 bits
Scan type : Progressive
Bits/(Pixel*Frame) : 0.646
Stream size : 39.7 GiB (92%)
Color range : Limited
Color primaries : BT.709
Transfer characteristics : BT.709
Matrix coefficients : BT.709
Audio #4352
ID : 4352 (0x1100)
Menu ID : 1 (0x1)
Format : TrueHD / AC-3
Mode extension : CM (complete main)
Format settings, Endianness : Big
Muxing mode : Stream extension
Codec ID : 131
Duration : 2 h 57 min
Bit rate mode : Variable / Constant
Bit rate : 640 kb/s
Maximum bit rate : 5 445 kb/s
Channel(s) : 6 channels
Channel positions : Front: L C R, Side: L R, LFE
Sampling rate : 48.0 kHz
Frame rate : 31.250 FPS (1536 spf)
Stream size : 811 MiB (2%)
Language : English
Audio #4353
ID : 4353 (0x1101)
Menu ID : 1 (0x1)
Format : AC-3
Format/Info : Audio Coding 3
Mode extension : CM (complete main)
Format settings, Endianness : Big
Codec ID : 129
Duration : 2 h 57 min
Bit rate mode : Constant
Bit rate : 640 kb/s
Channel(s) : 6 channels
Channel positions : Front: L C R, Side: L R, LFE
Sampling rate : 48.0 kHz
Frame rate : 31.250 FPS (1536 spf)
Compression mode : Lossy
Stream size : 811 MiB (2%)
Language : English
Text #4608
ID : 4608 (0x1200)
Menu ID : 1 (0x1)
Format : PGS
Codec ID : 144
Language : English
Text #4609
ID : 4609 (0x1201)
Menu ID : 1 (0x1)
Format : PGS
Codec ID : 144
Language : English
Text #4610
ID : 4610 (0x1202)
Menu ID : 1 (0x1)
Format : PGS
Codec ID : 144
Language : Japanese
Text #4611
ID : 4611 (0x1203)
Menu ID : 1 (0x1)
Format : PGS
Codec ID : 144
Language : Japanese
Text #4612
ID : 4612 (0x1204)
Menu ID : 1 (0x1)
Format : PGS
Codec ID : 144
Language : Japanese
Text #4613
ID : 4613 (0x1205)
Menu ID : 1 (0x1)
Format : PGS
Codec ID : 144
Language : Japanese



Bu da Ses ekledikten sonraki hali

The Godfather Collection 1972-1990 The Coppola Restoration Blu-ray Remux 1080p AVC TrueHD 5.1-HD RemuX\The.Godfather.1972.Blu-ray.Remux.1080p.AVC.TrueHD.5.1-HDRemuX.mkv
General
Unique ID : 198343664413541711520141782306483757712 (0x953799AA774596EEA3C9808683E66290)
Complete name : The.Godfather.1972.Blu-ray.Remux.1080p.AVC.TrueHD.5.1-HDRemuX.mkv
Format : Matroska
Format version : Version 4 / Version 2
File size : 40.4 GiB
Duration : 2 h 57 min
Overall bit rate mode : Variable
Overall bit rate : 32.7 Mb/s
Encoded date : UTC 2017-02-16 12:51:31
Writing application : mkvmerge v7.7.0 ('Six Voices') 64bit built on Feb 28 2015 23:39:33
Writing library : libebml v1.3.1 + libmatroska v1.4.2
Video #1
ID : 1
Format : AVC
Format/Info : Advanced Video Codec
Format profile : High@L4.1
Format settings, CABAC : Yes
Format settings, ReFrames : 4 frames
Codec ID : V_MPEG4/ISO/AVC
Duration : 2 h 57 min
Bit rate mode : Variable
Bit rate : 27.0 Mb/s
Maximum bit rate : 38.3 Mb/s
Width : 1 920 pixels
Height : 1 080 pixels
Display aspect ratio : 16:9
Frame rate mode : Constant
Frame rate : 23.976 (24000/1001) FPS
Color space : YUV
Chroma subsampling : 4:2:0
Bit depth : 8 bits
Scan type : Progressive
Bits/(Pixel*Frame) : 0.543
Stream size : 33.4 GiB (83%)
Default : Yes
Forced : No
Color range : Limited
Color primaries : BT.709
Transfer characteristics : BT.709
Matrix coefficients : BT.709
Audio #2
ID : 2
Format : TrueHD
Codec ID : A_TRUEHD
Duration : 2 h 57 min
Bit rate mode : Variable
Bit rate : 3 557 kb/s
Maximum bit rate : 5 445 kb/s
Channel(s) : 6 channels
Channel positions : Front: L C R, Side: L R, LFE
Sampling rate : 48.0 kHz
Frame rate : 1 200.000 FPS (40 spf)
Compression mode : Lossless
Stream size : 4.40 GiB (11%)
Title : Eng HD
Language : English
Default : Yes
Forced : No
Audio #3
ID : 3
Format : AC-3
Format/Info : Audio Coding 3
Mode extension : CM (complete main)
Format settings, Endianness : Big
Codec ID : A_AC3
Duration : 2 h 57 min
Bit rate mode : Constant
Bit rate : 640 kb/s
Channel(s) : 6 channels
Channel positions : Front: L C R, Side: L R, LFE
Sampling rate : 48.0 kHz
Frame rate : 31.250 FPS (1536 spf)
Compression mode : Lossy
Stream size : 811 MiB (2%)
Language : English
Default : No
Forced : No
Audio #4
ID : 4
Format : AC-3
Format/Info : Audio Coding 3
Mode extension : CM (complete main)
Format settings, Endianness : Big
Codec ID : A_AC3
Duration : 2 h 57 min
Bit rate mode : Constant
Bit rate : 640 kb/s
Channel(s) : 6 channels
Channel positions : Front: L C R, Side: L R, LFE
Sampling rate : 48.0 kHz
Frame rate : 31.250 FPS (1536 spf)
Compression mode : Lossy
Stream size : 811 MiB (2%)
Language : English
Default : No
Forced : No
Audio #6
ID : 6
Format : DTS
Format/Info : Digital Theater Systems
Mode : 16
Format settings, Endianness : Big
Codec ID : A_DTS
Duration : 2 h 57 min
Bit rate mode : Constant
Bit rate : 768 kb/s
Channel(s) : 6 channels
Channel positions : Front: L C R, Side: L R, LFE
Sampling rate : 48.0 kHz
Frame rate : 93.750 FPS (512 spf)
Bit depth : 24 bits
Compression mode : Lossy
Stream size : 973 MiB (2%)
Title : Türkçe
Language : Turkish
Default : No
Forced : No
Text #5
ID : 5
Format : UTF-8
Codec ID : S_TEXT/UTF8
Codec ID/Info : UTF-8 Plain Text
Duration : 2 h 55 min
Bit rate : 41 b/s
Count of elements : 1332
Stream size : 52.9 KiB (0%)
Title : Türkçe Altyazı
Language : Turkish
Default : Yes
Forced : No
omerksk87 isimli Uye simdilik offline konumundadir   Alinti ile Cevapla
Alt 16 Şubat 2017, 15:59   #2
suhagurgen
suhagurgen - ait Kullanici Resmi (Avatar)
Uyelik tarihi: 21 Ağustos 2011
Bulundugu yer: Samsun/Bursa
Mesajlar: 1.338
Konular: 19
Rep Puanı : 1643
Standart

Arkadaşım

Sesi eklemek için MKVToolnix programını kullanmadan dolayı boyut düşmesi normaldir. Çünkü MKVToolnix programı adı üstünde Filmi MKV formatına dönüştürür. O nedenle 3 GB boyutunda bir değer kaybı yaşamışsın ama bu filmin görüntüsüne pek etki etmez.

Ha dersenki boyut da değişmesin format da M2TS olsun dersen o zaman tsMuxerGUI adlı programı kullanman gerekecek.

Bu hususta benim bir videolu anlatımım var, gerçi ben onu altyazı eklemek için düzenlemiştim ama aynı yöntem ile ses de ekleyebilirsin. Onu izlemeni tavsiye ederim. Sayfa linkini aşağıya ekledim

http://hdarsivi.net/teknik-destek/56...zi-ekleme.html
suhagurgen isimli Uye simdilik offline konumundadir   Alinti ile Cevapla
Alt 16 Şubat 2017, 17:50   #3
one_14
one_14 - ait Kullanici Resmi (Avatar)
Uyelik tarihi: 03 Aralık 2011
Mesajlar: 1.116
Konular: 1
Rep Puanı : 753
Standart

Yaklaşık 5mbs video bitrate düşmüş.


Benim Kudretimin Ulaştığı Yere Onların Hayalleri Bile Ulaşamaz.. ''Fatih Sultan Mehmet''
one_14 isimli Uye simdilik offline konumundadir   Alinti ile Cevapla
Alt 16 Şubat 2017, 19:50   #4
omerksk87
Avatar Yok
Uyelik tarihi: 28 Nisan 2012
Mesajlar: 19
Konular: 2
Rep Puanı : 10
Standart

Çok teşekkür ederim yardımlarınız için birazdan deneyeceğim.
omerksk87 isimli Uye simdilik offline konumundadir   Alinti ile Cevapla
Alt 17 Şubat 2017, 11:59   #5
omerksk87
Avatar Yok
Uyelik tarihi: 28 Nisan 2012
Mesajlar: 19
Konular: 2
Rep Puanı : 10
Standart

Evet işte tam olarak aradığım şey . Videolu anlatım çok iyi. Teşekkür ederim
omerksk87 isimli Uye simdilik offline konumundadir   Alinti ile Cevapla
Cevapla

Secenekler
Stil

Yetkileriniz
Konu Acma Yetkiniz Yok
Cevap Yazma Yetkiniz Yok
Eklenti Yukleme Yetkiniz Yok
Mesajinizi Degistirme Yetkiniz Yok

BB code is Acik
[IMG] Kodlari Acik
HTML-Kodu Kapali
Trackbacks are Kapali
Pingbacks are Kapali
Refbacks are Kapali


Sitemizde Yenimisiniz ? Yardim Konulari

Sitemizde kesinlikle yerli yapim filmlerin paylasilmasi yasaktir.Sitede yer alan tum icerik tanitim amaclidir. Lutfen begendiginiz yapimlarin orijinal blu-ray'ini alip onlara destek verin.
Telif hakki size ait olan iceriklerin siteden kaldirilmasi icin lutfen iletisime geciniz.
 

Powered by vBulletin® Version 3.8.7
Copyright ©2000 - 2017, Jelsoft Enterprises Ltd.
Search Engine Optimization by vBSEO 3.6.0